osu file format v14

[General]
AudioFilename: Rakuen no Tsubasa.mp3
AudioLeadIn: 1500
PreviewTime: 129425
Countdown: 0
SampleSet: Soft
StackLeniency: 0.7
Mode: 0
LetterboxInBreaks: 0
WidescreenStoryboard: 0

[Editor]
Bookmarks: 1691,9812,22207,34594,46981,59199,71562,84142,93433,105820,118207,130424,142788,155392,173973,186360,192553,208013,221949
DistanceSpacing: 0.9
BeatDivisor: 4
GridSize: 4
TimelineZoom: 2.6

[Metadata]
Title:Rakuen no Tsubasa
TitleUnicode:楽園の翼
Artist:Kurosaki Maon
ArtistUnicode:黒崎真音
Creator:Asagi
Version:10nya's Normal
Source:グリザイアの果実 -LE FRUIT DE LA GRISAIA-
Tags:Sakaki Yumiko Kajitsu frontwing opening 10nya -_t_e_n_n_y_a_-
BeatmapID:646764
BeatmapSetID:227041

[Difficulty]
HPDrainRate:4
CircleSize:3
OverallDifficulty:4
ApproachRate:4
SliderMultiplier:1.1
SliderTickRate:2

[Events]
//Background and Video events
0,0,"Yumiko.png",0,0
//Break Periods
2,10199,19391
2,93425,98358
//Storyboard Layer 0 (Background)
//Storyboard Layer 1 (Fail)
//Storyboard Layer 2 (Pass)
//Storyboard Layer 3 (Foreground)
//Storyboard Sound Samples

[TimingPoints]
522,387.096774193548,4,2,1,60,1,0
1683,-100,4,2,1,60,0,0
8070,-100,4,2,1,40,0,0
8844,-100,4,2,1,50,0,0
9618,-100,4,2,1,60,0,0
19876,-100,4,2,1,50,0,0
22199,-100,4,2,1,40,0,0
31683,-100,4,2,2,40,0,0
31780,-100,4,2,1,40,0,0
33618,-100,4,2,1,60,0,0
35554,-100,4,2,2,60,0,0
35651,-100,4,2,1,60,0,0
37876,-100,4,2,3,60,0,0
38263,-100,4,2,1,70,0,0
39038,-100,4,2,1,60,0,0
40005,-100,4,2,1,60,0,0
40586,-100,4,2,1,60,0,0
41747,-100,4,2,2,60,0,0
41844,-100,4,2,1,60,0,0
44263,-100,4,2,3,60,0,0
44457,-100,4,2,1,60,0,0
44844,-100,4,2,2,60,0,0
44941,-100,4,2,1,60,0,0
49296,-100,4,2,3,60,0,0
49392,-100,4,2,1,60,0,0
50844,-100,4,2,3,60,0,0
50941,-100,4,2,1,60,0,0
51618,-100,4,2,3,60,0,0
51715,-100,4,2,1,60,0,0
54134,-100,4,2,2,60,0,0
54231,-100,4,2,1,60,0,0
57618,-100,4,2,1,60,0,0
59167,-100,4,2,1,70,0,1
60328,-100,4,2,3,70,0,1
60425,-100,4,2,1,70,0,1
61102,-100,4,2,2,70,0,1
61199,-100,4,2,1,70,0,1
64199,-100,4,2,2,70,0,1
64296,-100,4,2,1,70,0,1
70392,-100,4,2,1,70,0,0
71554,-100,4,2,1,70,0,1
72715,-100,4,2,3,70,0,1
72812,-100,4,2,1,70,0,1
73489,-100,4,2,2,70,0,1
73586,-100,4,2,1,70,0,1
76586,-100,4,2,2,70,0,1
76683,-100,4,2,1,70,0,1
78134,-100,4,2,2,70,0,1
78231,-100,4,2,1,70,0,1
79876,-100,4,2,3,70,0,1
79973,-100,4,2,1,70,0,1
81038,-100,4,2,1,70,0,0
83360,-100,4,2,1,60,0,0
83747,-100,4,2,1,60,0,0
85102,-100,4,2,2,60,0,0
85199,-100,4,2,1,60,0,0
88392,-100,4,2,3,60,0,0
88489,-100,4,2,1,60,0,0
91296,-100,4,2,2,60,0,0
91392,-100,4,2,1,60,0,0
93425,-100,4,2,1,30,0,0
102715,-100,4,2,1,50,0,0
102909,-100,4,2,2,50,0,0
103005,-100,4,2,1,50,0,0
103296,-100,4,2,1,60,0,0
106780,-100,4,2,2,60,0,0
106876,-100,4,2,1,60,0,0
108328,-100,4,2,2,60,0,0
108425,-100,4,2,1,60,0,0
109102,-100,4,2,3,60,0,0
109489,-100,4,2,1,60,0,0
110263,-100,4,2,1,60,0,0
111231,-100,4,2,1,60,0,0
112005,-100,4,2,1,60,0,0
112973,-100,4,2,2,60,0,0
113070,-100,4,2,1,60,0,0
114134,-100,4,2,2,60,0,0
114231,-100,4,2,1,60,0,0
115489,-100,4,2,3,60,0,0
115586,-100,4,2,1,60,0,0
116070,-100,4,2,2,60,0,0
116167,-100,4,2,1,60,0,0
122070,-100,4,2,3,60,0,0
122167,-100,4,2,1,60,0,0
122844,-100,4,2,3,60,0,0
122941,-100,4,2,1,60,0,0
125360,-100,4,2,2,60,0,0
125457,-100,4,2,1,60,0,0
128844,-100,4,2,1,60,0,0
130392,-100,4,2,1,70,0,1
132328,-100,4,2,2,70,0,1
132425,-100,4,2,1,70,0,1
135425,-100,4,2,2,70,0,1
135521,-100,4,2,1,70,0,1
141618,-100,4,2,1,70,0,0
142780,-100,4,2,1,70,0,1
143941,-100,4,2,2,70,0,1
144038,-100,4,2,1,70,0,1
144715,-100,4,2,2,70,0,1
144812,-100,4,2,1,70,0,1
147812,-100,4,2,2,70,0,1
147909,-100,4,2,1,70,0,1
149360,-100,4,2,2,70,0,1
149457,-100,4,2,1,70,0,1
151102,-100,4,2,3,70,0,1
151199,-100,4,2,1,70,0,1
152263,-100,4,2,1,70,0,0
154973,-100,4,2,1,60,0,0
155360,-100,4,2,1,60,0,0
155554,-100,4,2,1,30,0,0
155747,-100,4,2,1,60,0,0
155941,-100,4,2,1,30,0,0
156134,-100,4,2,1,60,0,0
156328,-100,4,2,1,30,0,0
156521,-100,4,2,1,60,0,0
156715,-100,4,2,1,30,0,0
156909,-100,4,2,1,60,0,0
161554,-100,4,2,1,40,0,0
169296,-100,4,2,1,40,0,0
170844,-100,4,2,1,60,0,0
174909,-100,4,2,2,60,0,0
175005,-100,4,2,1,60,0,0
178005,-100,4,2,2,60,0,0
178102,-100,4,2,1,60,0,0
186134,-100,4,2,1,40,0,0
192134,-100,4,2,1,30,0,0
192521,-100,4,2,1,30,0,0
194070,-100,4,2,1,40,0,0
195425,-100,4,2,1,60,0,0
198521,-100,4,2,1,80,0,1
198909,-100,4,2,1,70,0,1
200457,-100,4,2,2,70,0,1
200554,-100,4,2,1,70,0,1
203554,-100,4,2,2,70,0,1
203651,-100,4,2,1,70,0,1
206651,-100,4,2,2,70,0,1
206844,-100,4,2,3,70,0,1
206941,-100,4,2,1,70,0,1
207425,-100,4,2,2,70,0,1
207521,-100,4,2,1,70,0,1
208005,-100,4,2,1,70,0,0
209167,-100,4,2,3,70,0,0
209263,-100,4,2,1,70,0,0
210521,-100,4,2,2,70,0,0
210618,-100,4,2,1,70,0,0
212651,-100,4,2,1,70,0,1
212747,-100,4,2,1,70,0,0
213425,-100,4,2,1,60,0,0
213812,-100,4,2,1,60,0,0
214199,-100,4,2,1,60,0,1
214392,-100,4,2,1,60,0,0
221167,-100,4,2,1,5,0,0

[Colours]
Combo1 : 255,146,94
Combo2 : 169,83,255
Combo3 : 255,74,74
Combo4 : 0,128,255

[HitObjects]
104,120,2070,6,0,B|176:128|260:96|260:96|284:128|284:128|368:168|368:168|344:256|232:232,1,440,4|4,0:0|0:0,0:0:0:0:
244,244,4780,2,0,L|252:320,1,55,,,0:0:0:0:
272,344,5167,2,0,B|332:312|408:340|408:340|520:248|448:52,1,440,4|0,0:0|1:0,0:0:0:0:
256,84,7489,2,0,L|128:80,1,110,2|2,0:0|0:0,0:0:0:0:
256,192,8070,12,4,9618,0:0:0:0:
256,296,20651,5,8,0:0:0:0:
256,296,20844,2,0,B|217:321|169:316|137:289,1,110,8|0,0:0|0:0,0:0:0:0:
320,112,22199,6,0,L|332:232,1,110,4|0,1:0|0:0,0:0:0:0:
360,260,22780,2,0,B|322:227|269:225|227:252|209:291,1,165,0|2,0:0|0:0,0:0:0:0:
152,356,23747,2,0,B|114:379|67:369|41:337,1,110,2|0,0:0|0:0,0:0:0:0:
44,296,24328,2,0,L|40:124,1,165,2|0,0:0|0:0,0:0:0:0:
128,84,25296,5,0,1:0:0:0:
128,84,25489,2,0,L|132:264,1,165,0|0,1:0|0:0,0:0:0:0:
200,328,26457,2,0,B|240:349|287:342|319:316,1,110,2|0,0:0|0:0,0:0:0:0:
336,288,27038,2,0,L|500:264,1,165,2|0,0:0|0:0,0:0:0:0:
472,168,28005,1,0,0:0:0:0:
392,112,28392,6,0,L|324:116,1,55,0|0,1:0|1:0,0:0:0:0:
268,184,28973,2,0,B|217:214|154:202|117:161,1,165,2|0,0:0|0:0,0:0:0:0:
36,220,29941,2,0,L|48:340,1,110,2|0,0:0|0:0,0:0:0:0:
144,340,30715,2,0,B|175:309|221:306|255:328,1,110,2|0,0:0|0:0,0:0:0:0:
292,344,31296,1,0,0:0:0:0:
292,344,31489,6,0,L|300:180,2,165,4|2|2,0:0|0:0|0:0,0:0:0:0:
192,336,33038,2,0,B|146:360|90:347|57:307|52:262,2,165,8|4|8,0:0|0:0|0:0,0:0:0:0:
236,312,34392,1,0,1:0:0:0:
236,312,34586,6,4,B|273:291|318:298|347:323,1,110,4|8,0:0|0:0,0:0:0:0:
388,328,35167,2,0,B|433:278|439:208|409:153,1,165,2|8,0:1|0:0,0:0:0:0:
368,88,36134,2,0,L|232:96,1,110,2|8,0:1|0:0,0:0:0:0:
168,132,36909,1,2,0:1:0:0:
144,228,37296,1,8,0:0:0:0:
212,304,37683,6,0,L|380:304,1,165,0|4,1:0|0:0,0:0:0:0:
384,204,38651,1,4,0:0:0:0:
316,132,39038,1,4,0:0:0:0:
180,188,39618,1,8,0:0:0:0:
132,276,40005,2,0,L|32:280,2,82.5,8|8|8,0:0|0:0|0:0,0:0:0:0:
176,252,40780,6,0,B|199:212|197:165|176:128,1,110,4|8,0:0|0:0,0:0:0:0:
164,100,41360,2,0,B|217:134|284:125|327:85,1,165,0|8,0:1|0:0,0:0:0:0:
412,64,42328,2,0,L|404:188,1,110,4|8,0:0|0:0,0:0:0:0:
376,268,43102,1,2,0:1:0:0:
276,264,43489,1,8,0:0:0:0:
260,166,43876,6,0,B|290:131|338:121|380:139|403:171,2,165,4|0|8,0:0|1:0|0:0,0:0:0:0:
236,264,45425,1,8,0:0:0:0:
236,264,45618,1,10,0:0:0:0:
308,332,46005,2,0,B|334:299|338:256|324:220,1,110,2|10,0:0|0:0,0:0:0:0:
256,92,46973,6,0,L|136:80,1,110,4|0,1:2|1:0,0:0:0:0:
96,72,47554,1,0,0:0:0:0:
44,156,47941,1,2,0:0:0:0:
72,196,48134,1,0,1:0:0:0:
104,232,48328,1,2,0:0:0:0:
256,264,48909,1,0,1:0:0:0:
256,264,49102,2,0,B|296:214|296:147|265:97,1,165,2|0,0:0|1:0,0:0:0:0:
340,36,50070,6,0,L|468:24,1,110,0|0,1:0|1:0,0:0:0:0:
480,64,50651,2,0,B|511:100|515:150|492:191|457:212,1,165,2|8,0:0|1:2,0:0:0:0:
412,220,51425,2,0,B|328:208|328:208|236:240,1,165,2|0,0:0|1:0,0:0:0:0:
208,252,52199,1,2,0:0:0:0:
184,156,52586,1,0,0:0:0:0:
184,156,52780,1,8,0:0:0:0:
92,192,53167,6,0,L|100:312,1,110,4|8,0:1|0:0,0:0:0:0:
128,344,53747,2,0,B|183:308|251:314|299:351,1,165,2|8,0:1|0:0,0:0:0:0:
384,324,54715,2,0,L|460:312,2,55,0|0|0,1:0|0:0|0:0,0:0:0:0:
318,249,55489,1,0,1:0:0:0:
318,249,55683,2,0,B|278:196|293:120|347:85,1,165,0|4,1:0|0:0,0:0:0:0:
412,44,56651,5,8,0:0:0:0:
468,128,57038,1,2,0:1:0:0:
384,176,57425,1,8,0:0:0:0:
384,176,57618,6,0,L|216:176,1,165,4|2,0:0|0:0,0:0:0:0:
152,252,58586,2,0,B|109:207|113:136|159:96,1,165,2|4,0:0|0:1,0:0:0:0:
248,64,59554,5,0,0:0:0:0:
248,64,59747,2,0,B|293:52|337:53|378:65,2,110,8|0|8,0:0|1:0|0:0,0:0:0:0:
224,108,60715,2,0,L|232:284,1,165,2|8,0:1|0:0,0:0:0:0:
368,216,61876,6,0,L|360:140,2,55,2|8|2,0:1|0:0|0:1,0:0:0:0:
348,312,62651,2,0,L|324:384,2,55,2|8|2,0:1|0:0|0:1,0:0:0:0:
272,248,63425,2,0,L|200:248,1,55,2|8,0:1|0:0,0:0:0:0:
168,248,63812,2,0,B|125:202|126:134|163:89,1,165,2|8,0:1|0:0,0:0:0:0:
288,164,64973,6,0,L|343:164,1,55,2|8,0:1|0:0,0:0:0:0:
380,200,65360,2,0,B|423:246|422:314|385:359,1,165,6|8,0:1|0:0,0:0:0:0:
340,364,66134,1,6,0:1:0:0:
220,276,66715,1,8,0:0:0:0:
220,276,66909,6,0,L|36:284,1,165,2|8,0:0|0:0,0:0:0:0:
44,236,67683,2,0,B|-3:195|-6:124|35:81,1,165,2|4,0:1|0:0,0:0:0:0:
76,72,68457,6,0,L|240:79,2,165,4|8|0,0:0|0:0|0:0,0:0:0:0:
28,88,69812,2,0,L|24:164,1,55,8|4,0:0|0:0,0:0:0:0:
188,328,70973,2,0,B|234:369|305:360|339:309,1,165,2|4,0:1|1:0,0:0:0:0:
256,256,71941,5,0,0:0:0:0:
256,256,72134,2,0,L|264:128,2,110,8|0|8,0:0|1:0|0:0,0:0:0:0:
292,288,73102,2,0,L|472:300,1,165,2|8,0:1|0:0,0:0:0:0:
424,156,74263,6,0,L|416:80,2,55,2|8|2,0:1|0:0|0:1,0:0:0:0:
340,204,75038,2,0,L|260:208,2,55,2|8|2,0:1|0:0|0:1,0:0:0:0:
420,264,75812,2,0,L|404:332,1,55,2|8,0:1|0:0,0:0:0:0:
372,352,76199,2,0,B|316:371|259:364|212:339,1,165,2|8,0:1|0:0,0:0:0:0:
104,240,77360,6,0,B|90:216|85:189|88:163,1,55,2|8,0:1|0:0,0:0:0:0:
100,140,77747,2,0,B|155:120|212:127|259:152,1,165,6|8,0:0|0:0,0:0:0:0:
288,192,78521,1,4,0:0:0:0:
220,324,79102,1,8,0:0:0:0:
220,324,79296,1,2,0:0:0:0:
220,324,79489,6,0,L|408:316,2,165,4|4|8,0:0|0:0|0:0,0:0:0:0:
232,224,81038,2,0,B|240:172|240:172|244:120,2,82.5,4|0|0,0:0|1:0|1:0,0:0:0:0:
208,268,81812,2,0,B|147:321|54:309|8:245,1,220,0|0,1:0|1:0,0:0:0:0:
140,96,83360,5,2,0:0:0:0:
228,52,83747,2,0,B|248:94|238:141|209:171,1,110,8|4,0:0|0:1,0:0:0:0:
152,228,84521,5,8,0:0:0:0:
152,228,84715,2,0,B|187:262|239:268|282:245|303:209,1,165,2|8,0:1|0:0,0:0:0:0:
320,172,85489,2,0,B|355:138|407:132|450:155|471:191,1,165,2|8,0:1|0:0,0:0:0:0:
388,244,86457,2,0,L|376:360,1,110,2|8,0:0|0:0,0:0:0:0:
272,360,87231,5,4,0:0:0:0:
148,280,87812,2,0,L|16:292,2,110,2|2|4,0:0|0:0|0:0,0:0:0:0:
120,136,89167,1,8,0:0:0:0:
204,84,89554,2,0,L|312:80,2,82.5,2|6|4,0:0|0:0|0:0,0:0:0:0:
180,128,90328,6,0,L|200:252,1,110,4|8,0:0|0:0,0:0:0:0:
228,276,90909,2,0,B|271:305|326:300|365:267|380:225,1,165,2|8,0:1|0:0,0:0:0:0:
428,160,91876,1,2,0:0:0:0:
428,160,92070,1,8,0:0:0:0:
484,240,92457,1,0,1:0:0:0:
256,192,99618,12,2,101941,0:0:0:0:
260,316,102715,6,0,L|252:132,1,165,8|4,0:0|0:0,0:0:0:0:
176,92,103683,1,0,1:0:0:0:
176,92,103876,2,0,B|139:118|90:112|61:81,1,110,8|0,0:0|1:0,0:0:0:0:
28,108,104457,2,0,L|36:240,1,110,0|4,1:0|0:1,0:0:0:0:
264,308,105812,6,0,B|296:273|349:271|383:299,1,110,4|8,0:0|0:0,0:0:0:0:
416,284,106392,2,0,B|445:230|441:168|412:121,1,165,2|8,0:1|0:0,0:0:0:0:
328,80,107360,1,2,0:1:0:0:
244,132,107747,1,8,0:0:0:0:
244,132,107941,2,0,L|76:132,1,165,2|8,0:1|0:0,0:0:0:0:
72,232,108909,6,0,L|244:232,1,165,0|4,1:0|0:0,0:0:0:0:
332,204,109876,1,4,0:0:0:0:
312,108,110263,1,4,0:0:0:0:
176,168,110844,1,8,0:0:0:0:
104,100,111231,2,0,L|108:8,2,82.5,8|0|0,0:3|1:0|1:0,0:0:0:0:
72,140,112005,6,0,L|84:272,1,110,4|8,0:0|0:0,0:0:0:0:
108,292,112586,2,0,B|144:322|195:321|232:294|248:257,1,165,2|8,0:1|0:0,0:0:0:0:
300,176,113554,2,0,B|357:144|429:167|461:229|449:285,1,220,4|0,0:0|0:0,0:0:0:0:
352,260,114715,1,8,0:0:0:0:
252,268,115102,6,0,B|195:232|183:156|224:104,2,165,4|2|8,0:0|0:1|0:0,0:0:0:0:
176,332,116651,1,8,0:0:0:0:
176,332,116844,1,2,0:0:0:0:
100,268,117231,2,0,L|96:152,1,110,4|0,0:0|1:0,0:0:0:0:
204,52,118199,6,0,B|244:77|293:68|323:37,1,110,4|0,0:0|1:0,0:0:0:0:
352,28,118780,1,2,0:0:0:0:
408,112,119167,2,0,L|420:188,2,55,2|0|2,0:0|1:0|0:0,0:0:0:0:
320,160,119941,1,2,0:0:0:0:
320,160,120134,2,0,L|184:152,2,110,0|0|0,1:0|1:0|1:0,0:0:0:0:
308,260,121296,6,0,L|172:252,1,110,0|0,1:0|1:0,0:0:0:0:
148,252,121876,2,0,B|100:211|93:142|127:93,1,165,2|0,0:0|1:0,0:0:0:0:
160,68,122651,2,0,L|336:80,1,165,2|0,0:0|1:0,0:0:0:0:
372,84,123425,1,2,0:0:0:0:
440,156,123812,1,8,0:3:0:0:
440,156,124005,6,0,B|411:188|365:194|329:176,1,110,8|4,0:0|0:0,0:0:0:0:
240,176,124780,1,8,0:0:0:0:
240,176,124973,2,0,L|232:348,1,165,2|8,0:1|0:0,0:0:0:0:
136,360,125941,6,0,L|64:372,2,55,0|0|0,1:0|0:0|0:0,0:0:0:0:
232,340,126715,1,8,0:0:0:0:
232,340,126909,2,0,L|408:328,1,165,2|4,0:1|0:0,0:0:0:0:
448,244,127876,5,8,0:0:0:0:
368,180,128263,2,0,L|383:127,2,55,0|8|0,0:0|0:0|0:0,0:0:0:0:
340,220,128844,2,0,B|297:262|228:259|189:217,1,165,0|0,1:0|1:0,0:0:0:0:
152,188,129618,1,8,0:0:0:0:
108,164,129812,2,0,L|104:292,1,110,,,0:0:0:0:
108,324,130392,5,4,0:0:0:0:
204,356,130780,1,0,0:0:0:0:
204,356,130973,2,0,B|235:325|282:324|315:347,1,110,8|2,0:0|0:1,0:0:0:0:
404,340,131747,1,8,0:0:0:0:
404,340,131941,2,0,B|418:279|414:220|395:166,1,165,2|8,0:1|0:0,0:0:0:0:
256,120,133102,6,0,L|180:124,2,55,2|8|2,0:1|0:0|0:1,0:0:0:0:
332,184,133876,2,0,L|408:188,2,55,2|8|2,0:1|0:0|0:1,0:0:0:0:
252,244,134651,2,0,L|176:248,1,55,0|8,0:1|0:0,0:0:0:0:
148,248,135038,2,0,B|95:213|85:141|124:92,1,165,2|8,0:1|0:0,0:0:0:0:
256,156,136199,6,0,L|336:152,1,55,2|8,0:1|0:0,0:0:0:0:
360,160,136586,2,0,B|413:195|423:267|384:316,1,165,4|8,0:0|0:0,0:0:0:0:
356,340,137360,1,4,0:0:0:0:
228,268,137941,1,8,0:0:0:0:
228,268,138134,6,0,B|173:234|101:257|76:316,1,165,2|8,0:1|0:0,0:0:0:0:
32,300,138909,2,0,B|55:216|36:132,1,165,2|8,0:1|0:0,0:0:0:0:
28,88,139683,6,0,B|108:92|108:92|208:64,2,165,4|8|0,0:0|0:0|0:0,0:0:0:0:
12,136,141038,2,0,L|20:216,1,55,8|4,0:0|0:0,0:0:0:0:
188,288,142005,1,0,0:0:0:0:
188,288,142199,2,0,B|224:305|263:303|296:288,1,110,2|8,0:0|0:0,0:0:0:0:
340,264,142780,6,0,B|309:208|314:143|344:93,1,165,4|8,1:0|0:0,0:0:0:0:
252,56,143747,2,0,B|216:39|177:41|144:56,1,110,2|8,0:1|0:0,0:0:0:0:
140,104,144328,2,0,B|107:138|58:146|16:126|-8:93,1,165,2|8,0:1|0:0,0:0:0:0:
52,240,145489,6,0,B|62:261|62:284|56:304,2,55,2|8|2,0:1|0:0|0:1,0:0:0:0:
32,144,146263,2,0,B|22:123|22:100|28:80,2,55,2|8|2,0:1|0:0|0:1,0:0:0:0:
128,176,147038,2,0,L|200:172,1,55,2|8,0:1|0:0,0:0:0:0:
228,152,147425,2,0,B|274:108|348:116|384:168,1,165,2|8,0:1|0:0,0:0:0:0:
396,204,148199,1,2,0:1:0:0:
340,284,148586,5,2,0:1:0:0:
340,284,148780,1,8,0:0:0:0:
340,284,148973,2,0,B|290:321|225:320|177:289,1,165,4|8,0:0|0:0,0:0:0:0:
140,276,149747,1,4,0:0:0:0:
228,156,150328,1,8,0:0:0:0:
228,156,150521,1,0,0:0:0:0:
228,156,150715,6,0,L|404:144,2,165,4|4|8,0:0|0:0|0:0,0:0:0:0:
248,252,152263,2,0,L|256:344,2,82.5,4|0|0,0:0|1:0|1:0,0:0:0:0:
200,244,153038,2,0,B|152:287|81:288|29:250|9:198,1,220,0|0,1:0|1:0,0:0:0:0:
164,76,154586,5,2,0:0:0:0:
256,116,154973,1,4,0:0:0:0:
256,192,155360,12,0,160005,0:0:0:0:
384,80,161554,6,0,L|396:260,1,165,4|8,0:0|0:0,0:0:0:0:
308,364,162715,1,2,0:0:0:0:
224,308,163102,2,0,B|179:305|147:267|148:225,1,110,0|0,1:0|0:0,0:0:0:0:
164,192,163683,2,0,B|185:133|185:73|168:19,1,165,0|2,1:0|0:0,0:0:0:0:
268,32,164651,6,0,L|384:36,1,110,0|2,1:0|0:0,0:0:0:0:
412,72,165231,2,0,L|408:256,1,165,0|2,1:0|0:0,0:0:0:0:
368,328,166199,1,0,1:0:0:0:
275,292,166586,1,2,0:0:0:0:
274,292,166780,2,0,B|292:236|356:209|408:236,1,165,0|2,1:0|0:0,0:0:0:0:
459,320,167747,6,4,B|501:289|516:235|500:186|466:156,1,165,4|8,0:0|0:0,0:0:0:0:
376,67,168909,1,2,0:0:0:0:
277,78,169296,2,4,B|235:109|220:163|236:212|270:242,1,165,4|8,0:0|0:0,0:0:0:0:
330,161,170263,1,0,1:0:0:0:
330,161,170457,6,0,B|367:182|411:174|438:146,1,110,2|4,0:0|0:0,0:0:0:0:
376,288,171425,2,0,B|331:247|260:256|226:307,1,165,2|8,0:0|0:0,0:0:0:0:
139,342,172392,1,8,0:0:0:0:
82,260,172780,2,0,L|79:141,1,110,8|2,0:0|0:0,0:0:0:0:
166,103,173554,1,8,0:0:0:0:
216,192,173941,5,4,0:0:0:0:
300,136,174328,1,2,0:0:0:0:
300,136,174521,2,0,B|332:189|315:256|265:288,1,165,2|2,0:1|0:0,0:0:0:0:
188,340,175489,1,2,0:1:0:0:
156,248,175876,1,2,0:0:0:0:
124,152,176263,2,0,B|87:135|45:143|17:168,2,110,2|2|4,0:1|0:0|0:0,0:0:0:0:
196,220,177425,5,8,0:0:0:0:
196,220,177618,2,0,B|234:185|240:129|214:84|173:65,1,165,2|8,0:1|0:0,0:0:0:0:
280,36,178586,2,0,L|376:32,2,82.5,4|0|2,0:0|0:0|0:0,0:0:0:0:
332,176,179747,5,8,0:0:0:0:
256,240,180134,1,4,0:0:0:0:
256,192,180328,12,2,183231,0:0:0:0:
304,230,184199,6,0,B|275:203|231:205|204:232,1,110,0|4,1:0|0:0,0:0:0:0:
60,92,185360,2,0,B|68:67|66:41|56:20,2,55,4|2|2,0:0|0:0|0:0,0:0:0:0:
32,132,185941,1,2,0:0:0:0:
32,132,186134,2,0,B|75:103|130:106|171:137|188:179,1,165,4|2,0:0|0:0,0:0:0:0:
252,224,187102,2,0,B|295:253|350:250|391:219|408:177,1,165,2|2,0:0|0:0,0:0:0:0:
312,144,188070,1,2,0:0:0:0:
124,84,188844,5,2,0:0:0:0:
72,168,189231,2,0,L|64:288,1,110,2|0,0:0|0:0,0:0:0:0:
60,328,189812,2,0,B|80:347|108:352|132:344,1,55,2|0,0:0|0:0,0:0:0:0:
208,332,190392,2,0,B|227:312|232:284|224:260,1,55,0|2,0:0|0:0,0:0:0:0:
220,232,190780,2,0,B|196:193|200:147|224:113,2,110,2|0|2,0:0|0:0|0:0,0:0:0:0:
304,180,191941,1,2,0:0:0:0:
304,180,192134,6,0,B|346:201|395:190|423:157,1,110,2|4,0:0|0:0,0:0:0:0:
352,88,192909,1,0,1:0:0:0:
264,40,193296,1,0,1:0:0:0:
228,132,193683,2,0,B|207:168|214:211|239:239,1,110,0|0,1:0|1:0,0:0:0:0:
204,328,194457,2,0,B|168:307|125:314|97:339,2,110,0|0|0,1:0|1:0|0:0,0:0:0:0:
252,336,195425,6,0,B|292:364|345:362|383:332|400:293,1,165,4|2,1:0|0:0,0:0:0:0:
392,200,196392,2,0,B|382:176|382:150|388:127,1,55,0|0,1:0|1:0,0:0:0:0:
416,108,196780,2,0,B|426:84|426:58|420:35,1,55,0|4,1:0|1:0,0:0:0:0:
324,68,197360,6,0,L|256:64,1,55,0|2,0:0|0:0,0:0:0:0:
224,84,197747,2,0,L|156:88,1,55,0|2,0:0|0:0,0:0:0:0:
124,104,198134,2,0,L|128:232,1,110,2|0,0:0|0:0,0:0:0:0:
144,312,198909,5,2,0:1:0:0:
144,312,199102,2,0,B|184:330|228:327|264:308,1,110,8|8,0:0|0:0,0:0:0:0:
280,272,199683,2,0,L|288:196,1,55,8|8,0:0|0:0,0:0:0:0:
296,168,200070,2,0,B|334:133|390:130|432:158|451:199,1,165,2|8,0:1|0:0,0:0:0:0:
352,304,201231,6,0,B|343:330|345:357|356:380,2,55,2|8|2,0:1|0:0|0:1,0:0:0:0:
276,240,202005,2,0,B|250:231|223:233|200:244,2,55,2|8|2,0:1|0:0|0:1,0:0:0:0:
364,200,202780,2,0,L|400:144,1,55,2|8,0:1|0:0,0:0:0:0:
424,112,203167,2,0,B|385:67|318:66|276:106,1,165,0|8,0:1|0:0,0:0:0:0:
148,180,204328,6,0,L|156:260,1,55,2|8,0:1|0:0,0:0:0:0:
192,268,204715,2,0,B|235:297|290:294|331:263|348:221,1,165,4|8,0:0|0:0,0:0:0:0:
384,220,205489,2,0,L|388:32,1,165,4|8,0:0|0:0,0:0:0:0:
340,44,206263,1,2,0:1:0:0:
340,44,206457,6,0,B|292:82|224:75|185:33,2,165,4|4|8,0:0|0:0|0:0,0:0:0:0:
396,124,208005,2,0,L|488:132,2,82.5,4|0|0,0:0|1:0|1:0,0:0:0:0:
348,140,208780,2,0,L|368:364,1,220,0|4,1:0|0:0,0:0:0:0:
268,352,209941,5,8,0:0:0:0:
268,352,210134,2,0,L|252:184,1,165,2|8,0:1|0:0,0:0:0:0:
300,100,211102,2,0,B|331:79|369:79|400:96,2,82.5,4|0|0,0:0|1:0|1:0,0:0:0:0:
256,124,211876,2,0,B|209:166|139:166|89:126|73:74,1,220,0|0,1:0|1:0,0:0:0:0:
92,276,213425,5,2,0:0:0:0:
180,320,213812,1,12,0:0:0:0:
256,192,214199,12,2,217296,0:0:0:0:
256,216,218263,6,0,L|248:80,1,110,2|4,0:0|0:0,0:0:0:0:
256,192,218844,12,2,221167,0:0:0:0:
